CHD高清論壇

 找回密碼
 立即注冊

QQ登錄

只需一步,快速開始

搜索
熱搜: 活動 交友 discuz
查看: 1230|回復: 74
打印 上一主題 下一主題

[喜劇片] 在線金錢賽.Selfie.Shootout.2016.1080p.AMZN.WEBRip.DDP2.0.x264-BTW

  [復制鏈接]
跳轉到指定樓層
樓主
發表于 3 天前 | 只看該作者 回帖獎勵 |倒序瀏覽 |閱讀模式
天下第一棋牌注冊送1111金幣


[size=13.3333px]◎譯  名 在線金錢賽
[size=13.3333px]◎片  名 $elfie Shootout
[size=13.3333px]◎年  代 2016
[size=13.3333px]◎產  地 美國
[size=13.3333px]◎類  別 喜劇
[size=13.3333px]◎語  言 英語
[size=13.3333px]◎IMDb評分 3.4/10 from 103 users
[size=13.3333px]◎IMDb鏈接 http://www.imdb.com/title/tt4004608
[size=13.3333px]◎豆瓣評分 0/10 from 0 users
[size=13.3333px]◎豆瓣鏈接 https://movie.douban.com/subject/26716848/
[size=13.3333px]◎導  演 Giorgio Daveed

[size=13.3333px]◎標  簽 美國 | 爛片 | 喜劇

[size=13.3333px]◎簡  介

[size=13.3333px]  Two young and broke guys concoct an online contest scheme to get sexy females to submit their selfie for $25 a pop. They start by offering a $1,000 cash prize but as things go wrong and expenses balloon they ultimately inflate the prize to $1 million in order to attract more contestants.
Video
ID : 1
Format : AVC
Format/Info : Advanced Video Codec
Format profile : [email protected]
Format settings : CABAC / 4 Ref Frames
Format settings, CABAC : Yes
Format settings, Reference frames : 4 frames
Codec ID : V_MPEG4/ISO/AVC
Duration : 1 h 26 min
Bit rate mode : Variable
Bit rate : 3 960 kb/s
Maximum bit rate : 15.0 Mb/s
Width : 1 920 pixels
Height : 1 080 pixels
Display aspect ratio : 16:9
Frame rate mode : Constant
Frame rate : 23.976 (24000/1001) FPS
Color space : YUV
Chroma subsampling : 4:2:0
Bit depth : 8 bits
Scan type : Progressive
Bits/(Pixel*Frame) : 0.080
Stream size : 2.40 GiB (93%)
Writing library : x264 core 148 r2623 d5b2374
Encoding settings : cabac=1 / ref=4 / deblock=1:-1:-1 / analyse=0x3:0x133 / me=umh / subme=9 / psy=1 / psy_rd=1.00:0.15 / mixed_ref=1 / me_range=24 / chroma_me=1 / trellis=2 / 8x8dct=1 / cqm=0 / deadzone=21,11 / fast_pskip=1 / chroma_qp_offset=-3 / threads=34 / lookahead_threads=5 / sliced_threads=0 / nr=150 / decimate=1 / interlaced=0 / bluray_compat=0 / constrained_intra=0 / bframes=8 / b_pyramid=2 / b_adapt=2 / b_bias=0 / direct=3 / weightb=1 / open_gop=0 / weightp=2 / keyint=120 / keyint_min=61 / scenecut=0 / intra_refresh=0 / rc_lookahead=120 / rc=crf / mbtree=1 / crf=18.0 / qcomp=0.60 / qpmin=0 / qpmax=69 / qpstep=4 / vbv_maxrate=15000 / vbv_bufsize=31250 / crf_max=0.0 / nal_hrd=vbr / filler=0 / ip_ratio=1.40 / aq=3:1.00
Default : Yes
Forced : No
Color range : Limited
Color primaries : BT.709
Transfer characteristics : BT.709
Matrix coefficients : BT.709

Audio
ID : 2
Format : E-AC-3
Format/Info : Enhanced AC-3
Commercial name : Dolby Digital Plus
Codec ID : A_EAC3
Duration : 1 h 26 min
Bit rate mode : Constant
Bit rate : 224 kb/s
Channel(s) : 2 channels
Channel layout : L R
Sampling rate : 48.0 kHz
Frame rate : 31.250 FPS (1536 SPF)
Compression mode : Lossy
Stream size : 139 MiB (5%)
Language : English
Service kind : Complete Main
Default : Yes
Forced : No

Text
ID : 3
Format : UTF-8
Codec ID : S_TEXT/UTF8
Codec ID/Info : UTF-8 Plain Text
Language : English
Default : No
Forced : No

[size=13.3333px][size=13.3333px][size=13.3333px][size=13.3333px][size=13.3333px][size=13.3333px]


回復下載:





游客,如果您要查看本帖隱藏內容請回復


本帖子中包含更多資源

您需要 登錄 才可以下載或查看,沒有帳號?立即注冊

x
分享到:  QQ好友和群QQ好友和群 QQ空間QQ空間 騰訊微博騰訊微博 騰訊朋友騰訊朋友
收藏收藏
回復

使用道具 舉報

推薦
發表于 3 天前 | 只看該作者
看 黃 片:

http://9bm.me/portal.php?x=625933


看 黃 片:

http://9bm.me/portal.php?x=625933


看 黃 片:

http://9bm.me/portal.php?x=625933


看 黃 片:

http://9bm.me/portal.php?x=625933


看 黃 片:

http://9bm.me/portal.php?x=625933


看 黃 片:

http://9bm.me/portal.php?x=625933


看 黃 片:

http://9bm.me/portal.php?x=625933


看 黃 片:

http://9bm.me/portal.php?x=625933


看 黃 片:

http://9bm.me/portal.php?x=625933


看 黃 片:

http://9bm.me/portal.php?x=625933


看 黃 片:

http://9bm.me/portal.php?x=625933


看 黃 片:

http://9bm.me/portal.php?x=625933


看 黃 片:

http://9bm.me/portal.php?x=625933


看 黃 片:

http://9bm.me/portal.php?x=625933


看 黃 片:

http://9bm.me/portal.php?x=625933


看 黃 片:

http://9bm.me/portal.php?x=625933


看 黃 片:

http://9bm.me/portal.php?x=625933


看 黃 片:

http://9bm.me/portal.php?x=625933


看 黃 片:

http://9bm.me/portal.php?x=625933


看 黃 片:

http://9bm.me/portal.php?x=625933


看 黃 片:

http://9bm.me/portal.php?x=625933


看 黃 片:

http://9bm.me/portal.php?x=625933


看 黃 片:

http://9bm.me/portal.php?x=625933


看 黃 片:

http://9bm.me/portal.php?x=625933


看 黃 片:

http://9bm.me/portal.php?x=625933


看 黃 片:

http://9bm.me/portal.php?x=625933


看 黃 片:

http://9bm.me/portal.php?x=625933


看 黃 片:

http://9bm.me/portal.php?x=625933


看 黃 片:

http://9bm.me/portal.php?x=625933


看 黃 片:

http://9bm.me/portal.php?x=625933


看 黃 片:

http://9bm.me/portal.php?x=625933


看 黃 片:

http://9bm.me/portal.php?x=625933


看 黃 片:

http://9bm.me/portal.php?x=625933


看 黃 片:

http://9bm.me/portal.php?x=625933


看 黃 片:

http://9bm.me/portal.php?x=625933


看 黃 片:

http://9bm.me/portal.php?x=625933


看 黃 片:

http://9bm.me/portal.php?x=625933


看 黃 片:

http://9bm.me/portal.php?x=625933


看 黃 片:

http://9bm.me/portal.php?x=625933


看 黃 片:

http://9bm.me/portal.php?x=625933


看 黃 片:

http://9bm.me/portal.php?x=625933


看 黃 片:

http://9bm.me/portal.php?x=625933


看 黃 片:

http://9bm.me/portal.php?x=625933


看 黃 片:

http://9bm.me/portal.php?x=625933


看 黃 片:

http://9bm.me/portal.php?x=625933


回復 支持 1 反對 0

使用道具 舉報

板凳
發表于 3 天前 | 只看該作者
感謝分享!!感謝樓主分享!!





......
回復 支持 反對

使用道具 舉報

地板
發表于 3 天前 | 只看該作者
感謝分享,支持幾百下。

回復 支持 反對

使用道具 舉報

5#
發表于 3 天前 | 只看該作者
好東西,謝謝分享
回復 支持 反對

使用道具 舉報

6#
發表于 3 天前 | 只看該作者
感謝樓主分享
回復 支持 反對

使用道具 舉報

7#
發表于 3 天前 | 只看該作者
63666666666666666666666666666666666666666666666
回復 支持 反對

使用道具 舉報

8#
發表于 3 天前 | 只看該作者
感謝分享,支持幾百下
回復 支持 反對

使用道具 舉報

9#
發表于 3 天前 | 只看該作者
好東西,謝謝分享
回復 支持 反對

使用道具 舉報

10#
發表于 3 天前 | 只看該作者
nice share, thank you
回復 支持 反對

使用道具 舉報

您需要登錄后才可以回帖 登錄 | 立即注冊

本版積分規則

快速回復 返回頂部 返回列表
中福在线怎么样